#TITLE:make my day;
#SUBTITLE:;
#ARTIST:倉木麻衣;
#TITLETRANSLIT:;
#SUBTITLETRANSLIT:;
#ARTISTTRANSLIT:;
#CREDIT:;
#BANNER:make my day-logo.jpg;
#BACKGROUND:make my day.jpg;
#LYRICSPATH:;
#CDTITLE:Lan.png;
#MUSIC:make my day.mp3;
#OFFSET:-0.020;
#SAMPLESTART:52.365;
#SAMPLELENGTH:12.000;
#SELECTABLE:YES;
#BPMS:0.000=114.580,4.000=171.870,4.500=57.290,4.667=171.780,5.167=57.290,5.333=171.870,5.833=57.290,6.000=171.870,6.500=57.290,6.667=171.870,7.167=57.290,7.333=171.870,7.833=57.290,8.000=114.580,9.000=57.290,9.500=171.870,11.000=114.580,132.000=171.870,132.500=57.290,132.667=171.870,133.167=57.290,133.333=171.870,133.833=57.290,134.000=171.870,134.500=57.290,134.667=171.870,135.167=57.290,135.333=171.870,135.833=57.290,136.000=114.580,137.000=57.290,137.500=171.870,139.000=114.580;
#STOPS:;
#BGCHANGES:;
// cache tags:
#FIRSTBEAT:4.000;
#LASTBEAT:206.000;
#SONGFILENAME:Songs/lan sky/make my day/make my day.sm;
#HASMUSIC:1;
#HASBANNER:1;
#MUSICLENGTH:109.940;
// end cache tags

//---------------dance-single - sky----------------
#NOTES:
     dance-single:
     sky:
     Hard:
     9:
     0.963,0.913,1.000,0.000,0.568,477.000,220.000,0.000,0.000,40.000:

0000
0000
0000
0000
,
1011
0000
1101
0000
1110
0000
0111
0000
1011
0000
1101
0000
,
1111
0000
0000
0010
,
1101
0000
1010
0000
0101
0000
0010
0100
1001
0100
1000
0000
0101
0000
0010
0000
,
1100
0000
1001
0000
0110
0000
0000
0100
1001
0100
1000
0000
0100
0000
1010
0000
,
1101
0000
1000
0000
0110
0000
0001
1000
0110
1000
0101
0000
1010
0000
0101
0000
,
1101
0000
1010
0000
0101
0000
0010
1000
0110
1000
0110
1000
0110
1000
0110
0000
,
1011
0000
0100
0000
1010
0000
0100
0001
1010
0001
0010
0000
1001
0000
0100
0000
,
1011
0000
0101
0000
1010
0000
0100
0001
1010
0001
0010
0000
0001
0000
0110
0000
,
1011
0000
0001
0000
0110
0000
1000
0001
0110
0001
1010
0000
0101
0000
1010
0000
,
0111
0000
1000
0000
0111
0000
1000
0010
0101
1010
0101
1010
0101
0000
1010
0000
,
1100
0000
0001
0000
1000
0000
0000
0010
0101
0010
0101
0000
1000
0000
0100
0000
,
1100
0000
0001
0000
1000
0000
0000
0010
0101
0010
0101
0000
1000
0000
0100
0000
,
1010
0000
0001
0000
1000
0000
0000
0010
0101
0010
0101
0000
1000
0000
1000
0000
,
1100
0000
0001
0000
1000
0000
0000
0010
0101
0010
0101
0000
1000
0000
0100
0000
,
1001
0000
0100
0000
0001
0000
0000
0100
1010
0100
1010
0000
0001
0000
0010
0000
,
0101
0000
1000
0000
0001
0000
0000
0100
1010
0100
1010
0000
0001
0000
0010
0000
,
0011
0000
1000
0000
0001
0000
0000
0100
1010
0100
1010
0000
0001
0000
0001
0000
,
0011
0000
1000
0000
0001
0000
0000
1000
0101
1010
0101
1010
0101
1010
0101
1010
,
0101
0000
0010
0000
1000
0000
0000
0001
0100
0010
1000
0000
0001
0000
1000
0000
,
0101
0000
0010
0000
1000
0000
0000
0001
0100
0010
1000
0000
0001
0000
0110
0000
,
0101
0000
0010
0000
1000
0000
0000
0001
1000
0010
0100
0000
0001
0000
0100
0000
,
0101
0000
0010
0000
1000
0000
0000
0001
1000
0010
0100
0000
0001
0000
0110
0000
,
1010
0000
0001
0000
1000
0000
0000
0010
1100
0001
1100
0000
0001
0000
1000
0000
,
1010
0000
0001
0000
1000
0000
0000
0010
1100
0001
1100
0000
0001
0000
1000
0000
,
1010
0000
0001
0000
1000
0000
0000
0001
1100
0010
1100
0000
0001
0000
0001
0000
,
1010
0000
0100
0000
1000
0000
0000
0001
1100
0010
1100
0000
0011
0000
1100
0000
,
1110
0000
0100
0000
1001
0000
0010
1000
0100
1000
0101
0000
1010
0000
1001
0000
,
0101
0000
0100
0000
1001
0000
0010
1000
0100
1000
0110
0000
1001
0000
0110
0000
,
1101
0000
0010
0000
0001
0000
0000
1001
0110
1000
0100
0000
1000
0000
0101
0000
,
1101
0000
0010
0000
1000
0000
0000
0101
1010
0001
0100
0000
1000
0000
0100
0000
,
1100
0000
0010
0100
0001
1000
0010
0100
0001
1000
0010
1000
0001
0010
0100
0010
,
1100
0010
1000
0100
0010
0001
0100
0010
1000
0100
0010
0001
0100
0010
0100
0010
,
1101
0000
1011
0000
0111
0000
1110
0000
1101
0000
1011
0000
,
1111
0000
0000
0010
,
1101
0000
1010
0000
0101
0000
0010
0100
1001
0100
1000
0000
0101
0000
0010
0000
,
1100
0000
1001
0000
0110
0000
0000
0100
1001
0100
1000
0000
0100
0000
1010
0000
,
1101
0000
1000
0000
0110
0000
0001
1000
0110
1000
0101
0000
1010
0000
0101
0000
,
1101
0000
1010
0000
0101
0000
0010
1000
0110
1000
0110
1000
0110
1000
0110
0000
,
1011
0000
0100
0000
1010
0000
0100
0001
1010
0001
0010
0000
1001
0000
0100
0000
,
1011
0000
0101
0000
1010
0000
0100
0001
1010
0001
0010
0000
0001
0000
0110
0000
,
1011
0000
0101
0000
1010
0000
0100
0001
1010
0001
0110
0000
1001
0000
0110
0000
,
1011
0000
1000
0000
0111
0000
1000
0010
0101
1010
0101
1010
0101
0000
1010
0000
,
1100
0000
0001
0000
1000
0000
0000
0001
1100
0011
1100
0011
1000
0000
0100
0000
,
1100
0000
0001
0000
1000
0000
0000
0001
1100
0011
1100
0011
1000
0000
0100
0000
,
1010
0000
0001
0000
1000
0000
0000
0010
1100
0011
1100
0011
0100
0000
1000
0000
,
1100
0000
0001
0000
1000
0000
0000
0010
1100
0011
1100
0011
0100
0000
0100
0000
,
1001
0000
0100
0000
0001
0000
0000
1000
0011
1100
0011
1100
0001
0000
0010
0000
,
0101
0000
1000
0000
0001
0000
0000
1000
0011
1100
0011
1100
0001
0000
0010
0000
,
0011
0000
1000
0000
0001
0000
0000
0100
0011
1100
0011
1100
0010
0000
1000
0000
,
0111
0001
1011
0001
1101
1001
1011
1001
,
1111
1101
1111
0000
;
